Мимимишки скачать на планшет


Ми-ми-мишки [01-100 из 104] (2015-2016) WEB-DLRip от ExKinoRay скачать торрент

Информация о фильме

Название: Ми-ми-мишки Год выхода: 2015-2016 Страна: Россия, студия Паровоз Жанр: Мультсериал, детский, семейный, приключения Продолжительность: 100 х ~ 00:05:30 Язык: русский

Режиссеры: Алексей Миронов, Артур Толстобров

Роли озвучивали: Полина Кутепова, Наталия Медведева, Дарья Мазанова, ...

О фильме: Анимационный сериал «Ми-ми-мишки» в увлекательной форме рассказывает маленьким зрителям о забавных приключениях двух веселых медвежат – бурого медвежонка Иннокентия (Кешки) и его белого друга по имени Белая Тучка. Медвежата заняты своими обычными и не совсем обычными делами – собирают ягоды и грибы, ловят рыбу, читают книжки, летают на Луну. И неизбежно попадают в забавные, и, казалось бы, безвыходные ситуации.

Содержание

01. Звездная история 02. Грибы и листья 03. Фотоохота 04. Путешествие 05. Лучшая напоминалка 06. Несовременная еда 07. Борьба за урожай 08. Как лечить деревья 09. Домовой 10. Бессонница 11. Глобальное потепление 12. Огородники 13. Медовая история 14. Прогноз погоды 15. Змей на дереве 16. Финишная прямая 17. Пиратская история 18. Путешествие к звёздам 19. Победители дракона 20. Экспедиция на север 21. Больше не надо 22. Лучшее место в мире 23. Цыпа и динозавры 24. Фокусы с разоблачением 25. Настоящий Ниндзя 26. Нежданные гости 27. Необитаемый остров 28. Гол 29. Мишка-невидимка 30. Следствие ведут мишки 31. По своим правилам 32. Тучкина высота 33. Пещера, полная ловушек 34. Супер Мишки 35. В поход 36. Неуловимый Джо 37. Новогодний маскарад 38. Песня для Лисички 39. Умный дом 40. Сказка про репку 41. Мысли вслух 42. Маленькое приключение 43. Парк развлечений 44. Жемчужина севера 45. Кеша FM 46. Лучший друг Лисички 47. Богатый улов 48. Мишки на льду 49. Мой друг велосипед 50. Мишки в цирке 51. Баллада о рыцарях 52. Поиграем завтра 53. Зубная фея 54. Идеальные друзья 55. Проще простого 56. Вечный день 57. День рождения Лисички 58. Споры о красоте 59. Страшилки 60. Талисман удачи 61. Мне бы в небо 62. На связи 63. Сюрприз 64. Хорошие манеры 65. 5 минут назад 66. Игровой автомат 67. Слонопотам 68. Чистая правда 69. Розовые очки 70. Цыпа-почтальон 71. Хочу быть взрослой 72. Портрет белой Тучки 73. Подарок для Кеши 74. Пропавшая кукла 75. На 5 ходов вперёд 76. Большое приключение 77. Всё наоборот 78. Фильм-фильм-фильм 79. Дырявая память 80. Изобретатель чуда 81. Кеша - 2 82. Всё получится 83. Лунное приключение 85. Динозаврик 86. Всемашина 87. Речные гонки 88. Путешествие Цыпы 90. Помогашка 91. Порядок 92. Дрессировщик 93. О чем говорят птицы 94. Первооткрыватель 95. Кеша, выручай! 96. Подводная одиссея 97. Фантазёры 98. В игре 99. Контакт 100. Музей 103. Девочки против мальчиков

104. Войти в роль

Доп. информация: Семпл Файл Формат: AVI Качество: WEB-DLRip Видео: 720x400 (1.80:1), 25 fps, XviD build 65 ~1178 kbps avg, 0.16 bit/pixel Звук: 48 kHz, AC3 Dolby Digital, 2/0 (L,R) ch, ~192.00 kbps avg Субтитры: нет

MI

70. Цыпа-почтальон. XviD-merci-.avi

Format : AVI

Format/Info : Audio Video Interleave File size : 54.3 MiB Duration : 5 min 30 s Overall bit rate : 1 380 kb/s Writing application : VirtualDubMod 1.5.10.3 | www.virtualdub-fr.org || (build 2550/release) Writing library : VirtualDubMod build 2550/release Video ID : 0 Format : MPEG-4 Visual Format profile : Advanced [email protected] Format settings, BVOP : 1 Format settings, QPel : No Format settings, GMC : No warppoints Format settings, Matrix : Default (MPEG) Codec ID : XVID Codec ID/Hint : XviD Duration : 5 min 30 s Bit rate : 1 178 kb/s Width : 720 pixels Height : 400 pixels Display aspect ratio : 16:9 Frame rate : 25.000 FPS Color space : YUV Chroma subsampling : 4:2:0 Bit depth : 8 bits Scan type : Progressive Compression mode : Lossy Bits/(Pixel*Frame) : 0.164 Stream size : 46.4 MiB (85%) Writing library : XviD 65 Audio ID : 1 Format : AC-3 Format/Info : Audio Coding 3 Mode extension : CM (complete main) Format settings, Endianness : Big Codec ID : 2000 Duration : 5 min 30 s Bit rate mode : Constant Bit rate : 192 kb/s Channel(s) : 2 channels Channel positions : Front: L R Sampling rate : 48.0 kHz Frame rate : 31.250 FPS (1536 spf) Bit depth : 16 bits Compression mode : Lossy Stream size : 7.55 MiB (14%) Alignment : Split accross interleaves Interleave, duration : 40 ms (1.00 video frame) Interleave, preload duratio : 500 ms

Скриншоты

Добавил эпизоды: + 75-76 - 28.01.2017 + 74,77 - 03.02.2017 + 83,85 - 15.02.2017 + 80,82 - 18.02.2017 + 71,86,88 - 02.03.2017 + 72-73,78-79,81,87,90 - 09.03.2017 + 91-96,103,104 - 20.05.2017 + 97-98 - 23.05.2017

Релиз от:

Автор релиза: /

mrutor.org

Ми-ми-мишки (2015)

Мультфильмы / Ми-ми-мишки

Добавить в свои коллекции

Трейлер

30 Сен. 2015 23:00

Кадры из фильма.Для просмотра скриншотов нажмите на описание торрента!

Расписание сериала
Сезон 1 Показать сезон!
1 x 104 Эпизод 104 Торрентов пока нет. скоро ?
1 x 103 Эпизод 103 Торрентов пока нет. скоро ?
1 x 102 Эпизод 102 Торрентов пока нет. скоро ?
1 x 101 Эпизод 101 Торрентов пока нет. скоро ?
1 x 100 Эпизод 100 Торрентов пока нет. скоро ?
1 x 99 Эпизод 99 Торрентов пока нет. скоро ?
1 x 98 Эпизод 98 Торрентов пока нет. скоро ?
1 x 97 Эпизод 97 Торрентов пока нет. скоро ?
1 x 96 Эпизод 96 Торрентов пока нет. скоро ?
1 x 95 Эпизод 95 Торрентов пока нет. скоро ?
1 x 94 Эпизод 94 Торрентов пока нет. скоро ?
1 x 93 Эпизод 93 Торрентов пока нет. скоро ?
1 x 92 Эпизод 92 Торрентов пока нет. скоро ?
1 x 91 Эпизод 91 Торрентов пока нет. скоро ?
1 x 90 Эпизод 90 Торрентов пока нет. скоро ?
1 x 89 Эпизод 89 Торрентов пока нет. скоро ?
1 x 88 Эпизод 88 Торрентов пока нет. скоро ?
1 x 87 Эпизод 87 Торрентов пока нет. скоро ?
1 x 86 Эпизод 86 Торрентов пока нет. скоро ?
1 x 85 Эпизод 85 Торрентов пока нет. скоро ?
1 x 84 Эпизод 84 Торрентов пока нет. скоро ?
1 x 83 Эпизод 83 Торрентов пока нет. скоро ?
1 x 82 Эпизод 82 Торрентов пока нет. скоро ?
1 x 81 Эпизод 81 Торрентов пока нет. скоро ?
1 x 80 Эпизод 80 Торрентов пока нет. скоро ?
1 x 79 Эпизод 79 Торрентов пока нет. скоро ?
1 x 78 Эпизод 78 Торрентов пока нет. скоро ?
1 x 77 Эпизод 77 Торрентов пока нет. скоро ?
1 x 76 Эпизод 76 Торрентов пока нет. скоро ?
1 x 75 Эпизод 75 Торрентов пока нет. скоро ?
1 x 74 Эпизод 74 Торрентов пока нет. скоро ?
1 x 73 Эпизод 73 Торрентов пока нет. скоро ?
1 x 72 Эпизод 72 Торрентов пока нет. скоро ?
1 x 71 Эпизод 71 Торрентов пока нет. скоро ?
1 x 70 Эпизод 70 Показать эпизод! ?
1 x 69 Эпизод 69 Показать эпизод! ?
1 x 68 Эпизод 68 Показать эпизод! ?
1 x 67 Эпизод 67 Показать эпизод! ?
1 x 66 Эпизод 66 Показать эпизод! ?
1 x 65 Эпизод 65 Показать эпизод! ?
1 x 64 Эпизод 64 Показать эпизод! ?
1 x 63 Эпизод 63 Показать эпизод! ?
1 x 62 Эпизод 62 Показать эпизод! ?
1 x 61 Эпизод 61 Показать эпизод! ?
1 x 60 Эпизод 60 Показать эпизод! ?
1 x 59 Эпизод 59 Показать эпизод! ?
1 x 58 Эпизод 58 Показать эпизод! ?
1 x 57 Эпизод 57 Показать эпизод! ?
1 x 56 Эпизод 56 Показать эпизод! ?
1 x 55 Эпизод 55 Показать эпизод! ?
1 x 54 Эпизод 54 Показать эпизод! ?
1 x 53 Эпизод 53 Показать эпизод! ?
1 x 52 Эпизод 52 Показать эпизод! ?
1 x 51 Эпизод 51 Показать эпизод! ?
1 x 50 Эпизод 50 Показать эпизод! ?
1 x 49 Эпизод 49 Показать эпизод! ?
1 x 48 Эпизод 48 Показать эпизод! ?
1 x 47 Эпизод 47 Показать эпизод! ?
1 x 46 Эпизод 46 Показать эпизод! ?
1 x 45 Эпизод 45 Показать эпизод! ?
1 x 44 Эпизод 44 Показать эпизод! ?
1 x 43 Эпизод 43 Показать эпизод! ?
1 x 42 Эпизод 42 Показать эпизод! ?
1 x 41 Эпизод 41 Показать эпизод! ?
1 x 40 Эпизод 40 Показать эпизод! ?
1 x 39 Эпизод 39 Показать эпизод! ?
1 x 38 Эпизод 38 Показать эпизод! ?
1 x 37 Эпизод 37 Показать эпизод! ?
1 x 36 Эпизод 36 Показать эпизод! ?
1 x 35 Эпизод 35 Показать эпизод! ?
1 x 34 Эпизод 34 Показать эпизод! ?
1 x 33 Эпизод 33 Показать эпизод! ?
1 x 32 Эпизод 32 Показать эпизод! ?
1 x 31 Эпизод 31 Показать эпизод! ?
1 x 30 Эпизод 30 Показать эпизод! ?
1 x 29 Эпизод 29 Показать эпизод! ?
1 x 28 Эпизод 28 Показать эпизод! ?
1 x 27 Эпизод 27 Показать эпизод! ?
1 x 26 Эпизод 26 Показать эпизод! ?
1 x 25 Эпизод 25 Показать эпизод! ?
1 x 24 Эпизод 24 Показать эпизод! ?
1 x 23 Эпизод 23 Показать эпизод! ?
1 x 22 Эпизод 22 Показать эпизод! ?
1 x 21 Эпизод 21 Показать эпизод! ?
1 x 20 Эпизод 20 Показать эпизод! ?
1 x 19 Эпизод 19 Показать эпизод! ?
1 x 18 Эпизод 18 Показать эпизод! ?
1 x 17 Эпизод 17 Показать эпизод! ?
1 x 16 Эпизод 16 Показать эпизод! ?
1 x 15 Эпизод 15 Показать эпизод! ?
1 x 14 Эпизод 14 Показать эпизод! ?
1 x 13 Эпизод 13 Показать эпизод! ?
1 x 12 Эпизод 12 Показать эпизод! ?
1 x 11 Эпизод 11 Показать эпизод! ?
1 x 10 Эпизод 10 Показать эпизод! ?
1 x 09 Эпизод 9 Показать эпизод! ?
1 x 08 Эпизод 8 Показать эпизод! ?
1 x 07 Эпизод 7 Показать эпизод! ?
1 x 06 Эпизод 6 Показать эпизод! ?
1 x 05 Эпизод 5 Показать эпизод! ?
1 x 04 Эпизод 4 Показать эпизод! ?
1 x 03 Эпизод 3 Показать эпизод! ?
1 x 02 Эпизод 2 Показать эпизод! ?
1 x 01 Эпизод 1 Показать эпизод! ?

Торренты удалены по требованию правообладателяcopyright-problem

По вашему запросу рецензий не найдено

www.fast-torrent.ru

Ми-ми-мишки [01-100 из 104] (2015-2016) WEB-DLRip 720p от ExKinoRay скачать торрент

Информация о фильме

Название: Ми-ми-мишки Год выхода: 2015-2016 Страна: Россия, студия Паровоз Жанр: Мультсериал, детский, семейный, приключения Продолжительность: 100 х ~ 00:05:30 Язык: русский

Режиссеры: Алексей Миронов, Артур Толстобров

Роли озвучивали: Полина Кутепова, Наталия Медведева, Дарья Мазанова, ...

О фильме: Анимационный сериал «Ми-ми-мишки» в увлекательной форме рассказывает маленьким зрителям о забавных приключениях двух веселых медвежат – бурого медвежонка Иннокентия (Кешки) и его белого друга по имени Белая Тучка. Медвежата заняты своими обычными и не совсем обычными делами – собирают ягоды и грибы, ловят рыбу, читают книжки, летают на Луну. И неизбежно попадают в забавные, и, казалось бы, безвыходные ситуации.

Содержание

01. Звездная история 02. Грибы и листья 03. Фотоохота 04. Путешествие 05. Лучшая напоминалка 06. Несовременная еда 07. Борьба за урожай 08. Как лечить деревья 09. Домовой 10. Бессонница 11. Глобальное потепление 12. Огородники 13. Медовая история 14. Прогноз погоды 15. Змей на дереве 16. Финишная прямая 17. Пиратская история 18. Путешествие к звёздам 19. Победители дракона 20. Экспедиция на север 21. Больше не надо 22. Лучшее место в мире 23. Цыпа и динозавры 24. Фокусы с разоблачением 25. Настоящий Ниндзя 26. Нежданные гости 27. Необитаемый остров 28. Гол 29. Мишка-невидимка 30. Следствие ведут мишки 31. По своим правилам 32. Тучкина высота 33. Пещера, полная ловушек 34. Супер Мишки 35. В поход 36. Неуловимый Джо 37. Новогодний маскарад 38. Песня для Лисички 39. Умный дом 40. Сказка про репку 41. Мысли вслух 42. Маленькое приключение 43. Парк развлечений 44. Жемчужина севера 45. Кеша FM 46. Лучший друг Лисички 47. Богатый улов 48. Мишки на льду 49. Мой друг велосипед 50. Мишки в цирке 51. Баллада о рыцарях 52. Поиграем завтра 53. Зубная фея 54. Идеальные друзья 55. Проще простого 56. Вечный день 57. День рождения Лисички 58. Споры о красоте 59. Страшилки 60. Талисман удачи 61. Мне бы в небо 62. На связи 63. Сюрприз 64. Хорошие манеры 65. 5 минут назад 66. Игровой автомат 67. Слонопотам 68. Чистая правда 69. Розовые очки 70. Цыпа-почтальон 71. Хочу быть взрослой 72. Портрет белой Тучки 73. Подарок для Кеши 74. Пропавшая кукла 75. На 5 ходов вперёд 76. Большое приключение 77. Всё наоборот 78. Фильм-фильм-фильм 79. Дырявая память 80. Изобретатель чуда 81. Кеша - 2 82. Всё получится 83. Лунное приключение 85. Динозаврик 86. Всемашина 87. Речные гонки 88. Путешествие Цыпы 90. Помогашка 91. Порядок 92. Дрессировщик 93. О чем говорят птицы 94. Первооткрыватель 95. Кеша, выручай! 96. Подводная одиссея 97. Фантазёры 98. В игре 99. Контакт 100. Музей 103. Девочки против мальчиков

104. Войти в роль

Доп. информация: Семпл Файл Формат: MP4 Качество: WEB-DLRip 720p Видео: MPEG4-AVC, 1280x720 (16:9), ~ 1 107 Kbps, 25.000 fps Звук: 44.1 KHz, AAC-LC 2.0, 126 Kbps Субтитры: нет

MI

43. Парк развлечений. HD-merci-.mp4 Format : MPEG-4 Format profile : Base Media / Version 2 Codec ID : mp42 (mp42/isom) File size : 48.7 MiB Duration : 5 min 30 s Overall bit rate mode : Variable Overall bit rate : 1 238 kb/s Encoded date : UTC 2016-08-06 07:18:22 Tagged date : UTC 2016-08-06 07:18:22 gsst : 0 gstd : 349112 Video ID : 1 Format : AVC Format/Info : Advanced Video Codec Format profile : [email protected] Format settings, CABAC : Yes Format settings, ReFrames : 3 frames Codec ID : avc1 Codec ID/Info : Advanced Video Coding Duration : 5 min 30 s Bit rate : 1 107 kb/s Width : 1 280 pixels Height : 720 pixels Display aspect ratio : 16:9 Frame rate mode : Constant Frame rate : 25.000 FPS Color space : YUV Chroma subsampling : 4:2:0 Bit depth : 8 bits Scan type : Progressive Bits/(Pixel*Frame) : 0.048 Stream size : 43.6 MiB (89%) Language : English Encoded date : UTC 2016-08-06 07:18:22 Tagged date : UTC 2016-08-06 07:18:22 Color range : Limited Color primaries : BT.709 Transfer characteristics : BT.709 Matrix coefficients : BT.709 Audio ID : 2 Format : AAC Format/Info : Advanced Audio Codec Format profile : LC Codec ID : 40 Duration : 5 min 30 s Bit rate mode : Variable Bit rate : 126 kb/s Channel(s) : 2 channels Channel positions : Front: L R Sampling rate : 44.1 kHz Frame rate : 43.066 FPS (1024 spf) Compression mode : Lossy Stream size : 4.94 MiB (10%) Language : English Encoded date : UTC 2016-08-06 07:18:22 Tagged date : UTC 2016-08-06 07:18:22 mdhd_Duration : 330002

Скриншоты

Добавил эпизоды: + 75-76 - 28.01.2017 + 74,77 - 03.02.2017 + 83,85 - 15.02.2017 + 80,82 - 18.02.2017 + 71,86,88 - 02.03.2017 + 72-73,78-79,81,87,90 - 09.03.2017 + 91-96,103,104 - 20.05.2017 + 97-98 - 23.05.2017

Релиз от:

Автор релиза: /

krutor.org

Ми-ми-мишки 1 сезон 52 серия

Видео Перевод / озвучка Размер Сиды, личи Обновлен Файлы
720x400 русский 4.02 ГБ 60 75 09.09.2017 Скачать
720x400 русский 3.92 ГБ 70 100 10.09.2017 Скачать
720x400 оригинал 4.13 ГБ 95 123 03.10.2017 Скачать
1280x720 не требуется 4.30 ГБ 28 30 02.10.2017 Скачать
1280x720 не требуется 4.70 ГБ 13 25 20.09.2017 Скачать
1280x720 4.41 ГБ 65 89 04.10.2017 Скачать
1280x720 оригинал 4.34 ГБ 143 178 05.10.2017 Скачать
1920x1080 оригинал 6.57 ГБ 13 16 29.09.2017 Скачать
720x400 оригинал 5.19 ГБ 56 63 05.10.2017 Скачать
720x400 оригинал 4.77 ГБ 282 364 05.10.2017 Скачать
1280x720 не требуется 4.74 ГБ 6 12 05.10.2017 Скачать
1280x720 не требуется 4.15 ГБ 7 8 06.07.2017 Скачать
1280x720 : Не требуется 3.22 ГБ 1 1 06.07.2017 Скачать
1280x720 не требуется 3.31 ГБ 18 28 06.07.2017 Скачать
1280x720 не требуется 4.02 ГБ 12 19 15.09.2017 Скачать
1280x720 не требуется 3.75 ГБ 17 28 06.07.2017 Скачать
1280x720 не требуется 4.47 ГБ 7 18 06.07.2017 Скачать
1280x720 : Не требуется 3.05 ГБ 1 1 06.07.2017 Скачать
1280x720 оригинал 4.04 ГБ 143 168 29.09.2017 Скачать
1280x720 не требуется 4.54 ГБ 20 25 13.07.2017 Скачать
1920x1080 оригинал 7.91 ГБ 19 24 13.08.2017 Скачать
1280x720 не требуется 4.41 ГБ 8 10 05.10.2017 Скачать
720x400 оригинал 4.40 ГБ 79 113 15.09.2017 Скачать
1920x1080 8.09 ГБ 35 49 01.10.2017 Скачать
1920x1080 русский 5.94 ГБ 12 13 28.06.2017 Скачать
1920x1080 русский 5.94 ГБ 19 25 28.06.2017 Скачать
720x400 оригинал 4.24 ГБ 98 134 16.09.2017 Скачать
1920x1080 оригинал 6.13 ГБ 12 23 28.06.2017 Скачать
1280x720 оригинал 3.46 ГБ 31 35 28.06.2017 Скачать
1280x720 оригинал 3.55 ГБ 46 53 28.06.2017 Скачать
1920x1080 оригинал 6.28 ГБ 17 21 28.06.2017 Скачать
1280x720 : Не требуется 2.91 ГБ 1 1 28.06.2017 Скачать
1920x1080 оригинал 7.25 ГБ 19 24 28.06.2017 Скачать
1280x720 3.68 ГБ 36 44 23.09.2017 Скачать
1280x720 русский 3.36 ГБ 66 82 31.08.2017 Скачать
1280x720 русский 3.36 ГБ 23 25 16.09.2017 Скачать
720x400 5.30 ГБ 28 35 05.10.2017 Скачать
1280x720 не требуется 2.76 ГБ 147 193 17.09.2017 Скачать
1280x720 не требуется 3.40 ГБ 18 26 07.09.2017 Скачать

www.torrentino.me

Ми-ми-мишки 1 сезон 1 серия

Видео Перевод / озвучка Размер Сиды, личи Обновлен Файлы
720x400 русский 4.02 ГБ 60 75 09.09.2017 Скачать
720x400 русский 3.92 ГБ 70 100 10.09.2017 Скачать
720x400 оригинал 4.13 ГБ 95 123 03.10.2017 Скачать
1280x720 не требуется 4.30 ГБ 28 30 02.10.2017 Скачать
1280x720 не требуется 4.70 ГБ 13 25 20.09.2017 Скачать
1280x720 4.41 ГБ 65 89 04.10.2017 Скачать
1280x720 оригинал 4.34 ГБ 143 178 05.10.2017 Скачать
1920x1080 оригинал 6.57 ГБ 13 16 29.09.2017 Скачать
720x400 оригинал 5.19 ГБ 56 63 05.10.2017 Скачать
1280x720 : Не требуется 1.39 ГБ 1 1 28.06.2017 Скачать
720x400 1.02 ГБ 1 5 28.06.2017 Скачать
1280x720 : Не требуется 1.29 ГБ 1 1 28.06.2017 Скачать
1280x720 : Не требуется 1.50 ГБ 1 1 28.06.2017 Скачать
720x400 1.02 ГБ 15 16 28.06.2017 Скачать
720x400 Не требуется 1.49 ГБ 74 81 28.06.2017 Скачать
720x400 оригинал 4.77 ГБ 282 364 05.10.2017 Скачать
1280x720 не требуется 4.74 ГБ 6 12 05.10.2017 Скачать
1280x720 1.10 ГБ 19 26 06.07.2017 Скачать
1280x720 963.12 МБ 11 13 06.07.2017 Скачать
1280x720 910.14 МБ 9 10 06.07.2017 Скачать
1280x720 1.30 ГБ 15 18 06.07.2017 Скачать
1280x720 1015.68 МБ 6 8 06.07.2017 Скачать
1280x720 не требуется 4.15 ГБ 7 8 06.07.2017 Скачать
1280x720 : Не требуется 1.34 ГБ 1 1 06.07.2017 Скачать
1280x720 : Не требуется 877.00 МБ 1 1 06.07.2017 Скачать
1280x720 : Не требуется 3.22 ГБ 1 1 06.07.2017 Скачать
1280x720 не требуется 3.31 ГБ 18 28 06.07.2017 Скачать
1280x720 : Не требуется 2.29 ГБ 1 1 06.07.2017 Скачать
1280x720 : Не требуется 1.19 ГБ 1 1 06.07.2017 Скачать
1280x720 : Не требуется 1.03 ГБ 1 1 06.07.2017 Скачать
1280x720 не требуется 4.02 ГБ 12 19 15.09.2017 Скачать
1280x720 : Не требуется 2.53 ГБ 1 1 06.07.2017 Скачать
1280x720 : Не требуется 1.08 ГБ 1 1 06.07.2017 Скачать
1280x720 : Не требуется 935.23 МБ 1 1 06.07.2017 Скачать
1280x720 не требуется 3.75 ГБ 17 28 06.07.2017 Скачать
1280x720 не требуется 4.47 ГБ 7 18 06.07.2017 Скачать
1280x720 : Не требуется 3.05 ГБ 1 1 06.07.2017 Скачать
1280x720 : Не требуется 986.54 МБ 1 1 06.07.2017 Скачать
1280x720 оригинал 4.04 ГБ 143 168 29.09.2017 Скачать
1280x720 не требуется 4.54 ГБ 20 25 13.07.2017 Скачать
1920x1080 оригинал 7.91 ГБ 19 24 13.08.2017 Скачать
1280x720 не требуется 4.41 ГБ 8 10 05.10.2017 Скачать
720x400 оригинал 4.40 ГБ 79 113 15.09.2017 Скачать
1280x720 не требуется 1.20 ГБ 35 39 28.06.2017 Скачать
720x400 849.83 МБ 67 73 28.06.2017 Скачать
1920x1080 8.09 ГБ 35 49 01.10.2017 Скачать
720x400 не требуется 1.12 ГБ 51 53 28.06.2017 Скачать
1920x1080 русский 5.94 ГБ 12 13 28.06.2017 Скачать
1920x1080 русский 5.94 ГБ 19 25 28.06.2017 Скачать
720x400 оригинал 4.24 ГБ 98 134 16.09.2017 Скачать
1280x720 не требуется 1015.68 МБ 100 108 28.06.2017 Скачать
720x400 1.12 ГБ 35 42 28.06.2017 Скачать
720x400 1.22 ГБ 21 30 28.06.2017 Скачать
1920x1080 оригинал 6.13 ГБ 12 23 28.06.2017 Скачать
1280x720 оригинал 3.46 ГБ 31 35 28.06.2017 Скачать
1280x720 1.20 ГБ 11 15 28.06.2017 Скачать
1280x720 не требуется 910.14 МБ 128 145 28.06.2017 Скачать
1280x720 оригинал 3.55 ГБ 46 53 28.06.2017 Скачать
1920x1080 оригинал 6.28 ГБ 17 21 28.06.2017 Скачать
1280x720 : Не требуется 2.91 ГБ 1 1 28.06.2017 Скачать
1280x720 не требуется 1.10 ГБ 44 49 28.06.2017 Скачать
1920x1080 оригинал 7.25 ГБ 19 24 28.06.2017 Скачать
1280x720 3.68 ГБ 36 44 23.09.2017 Скачать
720x400 940.65 МБ 26 30 28.06.2017 Скачать
720x400 1.15 ГБ 12 19 28.06.2017 Скачать
1280x720 : Не требуется 1.44 ГБ 1 1 28.06.2017 Скачать
720x400 Не требуется 1.67 ГБ 19 22 28.06.2017 Скачать
1280x720 : Не требуется 1.97 ГБ 1 1 28.06.2017 Скачать
720x400 1.09 ГБ 8 8 28.06.2017 Скачать
1280x720 1.05 ГБ 6 9 28.06.2017 Скачать
1280x720 не требуется 1.50 ГБ 48 82 28.06.2017 Скачать
720x400 оригинал 849.83 МБ 107 118 26.09.2017 Скачать
1280x720 не требуется 1.35 ГБ 123 136 21.08.2017 Скачать
1280x720 русский 3.36 ГБ 66 82 31.08.2017 Скачать
1280x720 русский 3.36 ГБ 23 25 16.09.2017 Скачать
720x400 5.30 ГБ 28 35 05.10.2017 Скачать
1280x720 не требуется 1.50 ГБ 46 59 27.08.2017 Скачать
1280x720 не требуется 2.76 ГБ 147 193 17.09.2017 Скачать
1280x720 не требуется 3.40 ГБ 18 26 07.09.2017 Скачать

www.torrentino.me

Скачать Ми-ми-мишки Планета творчества на андроид бесплатно

Игра Ми-ми-мишки дает возможность всем детям почувствовать себя полноценными персонажами известного мультфильма! Ми-ми-мишки с восторгом поиграют с вашим ребенком в эту веселую и познавательную игру. Игру Ми-ми-мишки Планета творчества на андроид можно скачать бесплатно и без регистрации по ссылке ниже.

Сюжет и геймплей

В игре девочки и мальчики ощутят настоящую творческую свободу – они смогут участвовать в анимации, изучать фантастический лес, испытать небывалые приключения с героями мультфильма. Каждый герой имеет свои специфические анимационные сцены и до десяти разнообразных костюмов.

Возможности:

  • Исследовать мультпланету, самому создавать и перемещать всякие интерактивные предметы – их число превышает 140 штук
  • Подружиться с героями мультика: непоседой Кешей, верным Цыпой, милой Лисичкой, умницей Тучкой, Соней и Саней и помочь им справиться с познавательными и интересными заданиями.
  • Поиграть в любую интерактивную игру:
  • Совместно с Кешей создать корабль
  • Совместно с Тучкой убраться в ее доме
  • С мишками в лесу поучаствовать в охоте
  • Покормить рыбок в зимнем пруду
  • Совместно с Тучкой убрать снег возле дома
  • Убрать опавшие листья на площадке
  • Самостоятельно найти две новых игры во время исследования планеты

В игре постоянно возникают забавные ситуации, которые делают игровой процесс максимально увлекательным.

Есть две версии, каждая из которых имеет свои особенности.

Бесплатная – она не полная, с рекламой и с возможностью делать покупки за деньги.

Платная – полная. Без рекламы и покупок. Выбирайте сами!

Графика и звук

Графика четкая, анимация плавная, все ярко и красочно! Приятное музыкальное сопровождение и звуковые эффекты!

Игру Ми-ми-мишки Планета творчества можно скачать на нашем сайте.

android-smartfon.ru

Сериал Ми-ми-мишки — Mi-mi-mishki (2015)

Год выпуска: 2015 Страна: Россия Жанр: мультфильм, комедия Продолжительность: 1 сезон Перевод: Русский (Оригинал)

Режиссер: Вадим Воля, Евгений Головин, Алексей Миронов, Артур Толстобров

В ролях: Полина Кутепова, Наталия Медведева, Дарья Мазанова

Описание Сериала: О приключениях двух весёлых медвежат расскажет новый мультсериал «Ми-ми-мишки». Знакомьтесь. Белый медвежонок, живущий на севере, – Белая Тучка. Его хороший друг – бурый медвежонок Иннокентий. Правда, все родственники и друзья зовут его просто Кеша, потому что, он ещё маленький. Как и любые дети на свете Кеша и Тучка любят играть, придумывать интересные занятия для себя и всех окружающих, путешествовать и мечтать. И всем маленьким зрителям наши мишки предлагают вместе с ними узнать что-то для себя новое и интересное.

Каждая серия рассказывает о том, чем заняты приятели целый день. А забот у них много! Надо помочь старшим запасти на зиму грибы и ягоды, поймать на обед вкусную рыбку и не забыть придумать весёлую забаву, в которой можно участвовать вдвоём. Например, отправиться на далёкую Луну или просто почитать книжку. Много интересного медвежата могут рассказать друг другу и зрителям об обычаях своих народов – белых и бурых медведей. И любой рассказ, любое приключение, в которое, порой, попадают малыши, будут интересны всем ребятам, кто захочет подружиться с этими милыми шалунишками.

Из любой затруднительной ситуации лучше выбираться вместе, и наши герои каждый раз показывают, что только дружба может помочь решить все трудные задачи и весело провести время.

Все серии подряд Мимимишки - 1 серия. Звездная история HD Мимимишки - 2 серия. Грибы и листья HD Мимимишки - 3 серия. Фотоохота HD Мимимишки - 4 серия. Путешествие HD Мимимишки - 5 серия. Лучшая напоминалка HD Мимимишки - 6 серия. Несовременная еда HD Мимимишки - 7 серия. Борьба за урожай HD Мимимишки - 8 серия. Как лечить деревья HD Мимимишки - 9 серия. Домовой HD Мимимишки - 10 серия. Бессонница HD Ми-ми-мишки - 11 серия. Глобальное потепление HD Ми-ми-мишки - 12 серия. Огородники HD Ми-ми-мишки - 13 серия. Медовая история HD Ми-ми-мишки - 14 серия. Прогноз погоды HD Ми-ми-мишки - 15 серия. Змей на дереве HD Ми-ми-мишки - 16 серия. Финишная прямая HD Ми-ми-мишки - 17 серия. Пиратская история HD Ми-ми-мишки - 18 серия. Путешествие к звёздам HD Ми-ми-мишки -19 серия. Победители дракона HD Ми-ми-мишки - 20 серия. Экспедиция на север HD Ми-ми-мишки - 21 серия. Больше не надо HD Ми-ми-мишки - 22 серия. Лучшее место в мире HD Ми-ми-мишки - 23 серия. Цыпа и динозавры HD Ми-ми-мишки - 24 серия. Фокусы с разоблачением Ми-ми-мишки - 25 серия. Настоящий Ниндзя Ми-ми-мишки - 26 серия. Нежданные гости. Ми-ми-мишки - 27 серия. Необитаемый остров. Ми-ми-мишки - 28 серия. Гол Ми-ми-мишки - 29 серия. Мишка-невидимка. 30. Нежданные гости 31. Следствие ведут мишки 32. Необитаемый остров 33. Мишка-невидимка 34. Сказка про репку

zserials.cc


Смотрите также